Quicken Home Business 2016 R8 v25.1.8.5 [Androgalaxy]
Смотреть онлайнClaudia Marasca
Hawaii Five-0 2010 S08E18 HDTV x264-LOL EZTV
Loading...
Loading...
Loading...

Bizaardvark Season 2 1080p WEB-DL DD5 1 H 264-MiXED

Seeders: 1
Leechers: 1
Completed: n/a

Age: 9 hours    Visits: 12    Category: TV    Size: 31.0 GB

Posted by: LazyRips    Comments: Read Comments

Info Hash: BB48E1AABCE6B5174F67C78E54EE0092A29D3676



Now You Can Download Torrents From Kat.cr, Kickasstorrent Very Easily



Torrent Description



Bizaardvark:

Video
ID : 1
Format : AVC
Format/Info : Advanced Video Codec
Format profile : [email protected]
Format settings, CABAC : Yes
Format settings, ReFrames : 4 frames
Codec ID : V_MPEG4/ISO/AVC
Duration : 23mn 16s
Bit rate : 5 044 Kbps
Width : 1 920 pixels
Height : 1 080 pixels
Display aspect ratio : 16:9
Frame rate mode : Constant
Frame rate : 23.976 fps
Color space : YUV
Chroma subsampling : 4:2:0
Bit depth : 8 bits
Scan type : Progressive
Bits/(Pixel*Frame) : 0.101
Stream size : 840 MiB (91%)
Language : English
Default : Yes
Forced : No
Color primaries : BT.709
Transfer characteristics : BT.709
Matrix coefficients : BT.709

Audio
ID : 2
Format : AC-3
Format/Info : Audio Coding 3
Mode extension : CM (complete main)
Format settings, Endianness : Big
Codec ID : A_AC3
Duration : 23mn 16s
Bit rate mode : Constant
Bit rate : 384 Kbps
Channel(s) : 6 channels
Channel positions : Front: L C R, Side: L R, LFE
Sampling rate : 48.0 KHz
Bit depth : 16 bits
Compression mode : Lossy
Delay relative to video : -42ms
Stream size : 63.9 MiB (7%)
Language : English
Default : Yes
Forced : No

Text
ID : 3
Format : UTF-8
Codec ID : S_TEXT/UTF8
Codec ID/Info : UTF-8 Plain Text
Language : English
Default : Yes
Forced : No

Screenshots:





Recently Added Torrents in TV

Trackers List

tracker name
udp://tracker.opentrackr.org:1337/announce
udp://tracker.leechers-paradise.org:6969/announce
udp://tracker.pirateparty.gr:6969/announce
udp://tracker.coppersurfer.tk:6969/announce
udp://tracker.mg64.net:2710/announce
udp://tracker.zer0day.to:1337/announce

Sharing Widget


Download torrent
31.0 GB
Seeders: 1
Leechers: 1
Bizaardvark Season 2 1080p WEB-DL DD5 1 H 264-MiXED